Близкие (2017) WEB-DLRip от Files-x | SoftMaker Office Professional 2012.675.Retail | AnimationJogos de Aventura | Watch online | Filefox trouble

Soorma 2018 Hindi 720p PreDVD Rip x264 [MW]

  • Category Movies
  • Type Bollywood
  • Language Hindi
  • Total size 1.1 GB
  • Uploaded By moviezworldz
  • Downloads 23785
  • Last checked 3 weeks ago
  • Date uploaded 1 month ago
  • Seeders 169
  • Leechers 50

Soorma

Drama

East Indian field hockey player Sandeep Singh tries to make a comeback after a gunshot wound leaves him in a wheelchair.

Infohash : E0168AAFF7E9EC64E287FCF49EE9F65BDA84323E





General
Format : Matroska
Format version : Version 4 / Version 2
File size : 1.07 GiB
Duration : 1 h 54 min
Overall bit rate : 1 334 kb/s

Video
ID : 1
Format : AVC
Format/Info : Advanced Video Codec
Format profile : [email protected]
Format settings : CABAC / 4 Ref Frames
Format settings, CABAC : Yes
Format settings, RefFrames : 4 frames
Codec ID : V_MPEG4/ISO/AVC
Duration : 1 h 54 min
Bit rate : 1 200 kb/s
Width : 1 280 pixels
Height : 720 pixels
Display aspect ratio : 16:9
Frame rate mode : Constant
Frame rate : 25.000 FPS
Color space : YUV
Chroma subsampling : 4:2:0
Bit depth : 8 bits
Scan type : Progressive
Bits/(Pixel*Frame) : 0.052
Stream size : 989 MiB (90%)
Writing library : x264 core 155 r2901 7d0ff22
Default : Yes
Forced : No

Audio
ID : 2
Format : AAC
Format/Info : Advanced Audio Codec
Format profile : LC
Codec ID : A_AAC-2
Duration : 1 h 54 min
Bit rate : 128 kb/s
Channel(s) : 2 channels
Channel positions : Front: L R
Sampling rate : 48.0 kHz
Frame rate : 46.875 FPS (1024 SPF)
Compression mode : Lossy
Stream size : 105 MiB (10%)
Language : Hindi
Default : Yes
Forced : No


Click To Enlarge Image








Files:

Soorma 2018 Hindi 720p PreDVD Rip x264 [MW]
  • Soorma 2018 Hindi 720p PreDVD Rip x264 [MW].mkv (1.1 GB)

There are currently no comments. Feel free to leave one :)

Code:

  • udp://tracker.coppersurfer.tk:6969/announce
  • udp://tracker.pirateparty.gr:6969/announce
  • udp://tracker.coppersurfer.tk:6969/announce
  • udp://tracker.leechers-paradise.org:6969/announce
  • udp://eddie4.nl:6969/announce
  • udp://tracker.tiny-vps.com:6969/announce
  • udp://9.rarbg.me:2800/announce
  • udp://9.rarbg.to:2720/announce
  • udp://public.popcorn-tracker.org:6969/announce
  • udp://open.stealth.si:80/announce
  • udp://tracker.vanitycore.co:6969/announce
  • udp://tracker.opentrackr.org:1337/announce
  • udp://bt.firebit.co.uk:6969/announce
  • udp://shadowshq.yi.org:6969/announce