Wonderstruck 2017 dvdrip reloj en línea | English (USA) | Persona 5 The Animation Saison 01 VOSTFR STREAMING HDDancefloor Summer Hits 2018 | In Flight USA – August 2018 | Martial Arts

Deadpool 2 (2018) English 720p HC HDRip x264 1GB - Team TR

  • Category Movies
  • Type HD
  • Language English
  • Total size 1,005.4 MB
  • Uploaded By RockerS
  • Downloads 77495
  • Last checked 2 weeks ago
  • Date uploaded 3 weeks ago
  • Seeders 1206
  • Leechers 378

Deadpool 2

ActionComedyScience Fiction

Wisecracking mercenary Deadpool battles the evil and powerful Cable and other bad guys to save a boy's life.

Infohash : FD32C1C09DAE73E4C80B8573681C1F0A106A030F

Deadpool 2 (2018) English 720p HC HDRip x264 1GB - Team TR


SAMPLE

SCREESNHOTS



IMDB : http://www.imdb.com/title/tt5463162/

Trailer : http://www.youtube.com/watch?v=D86RtevtfrA

Source : NON (Thanks)
Encoded By : TamilRockers

Note : Stutters on some places,Bcz the source itself has low fps :(

Media Info
General
Format                                   : Matroska
Format version                           : Version 4 / Version 2
File size                                : 1 005 MiB
Duration                                 : 1 h 59 min
Overall bit rate                         : 1 181 kb/s


Video
ID                                       : 1
Format                                   : AVC
Format/Info                              : Advanced Video Codec
Format profile                           : [email protected]
Format settings                          : CABAC / 4 Ref Frames
Format settings, CABAC                   : Yes
Format settings, RefFrames               : 4 frames
Codec ID                                 : V_MPEG4/ISO/AVC
Duration                                 : 1 h 59 min
Bit rate                                 : 1 091 kb/s
Width                                    : 1 280 pixels
Height                                   : 564 pixels
Display aspect ratio                     : 2.25:1
Frame rate mode                          : Variable
Frame rate                               : 14.412 FPS
Color space                              : YUV
Chroma subsampling                       : 4:2:0
Bit depth                                : 8 bits
Scan type                                : Progressive
Bits/(Pixel*Frame)                       : 0.105
Stream size                              : 923 MiB (92%)
Language                                 : English
Default                                  : Yes
Forced                                   : No
Color range                              : Limited


Audio
ID                                       : 2
Format                                   : AAC
Format/Info                              : Advanced Audio Codec
Format profile                           : HE-AAC / LC
Format settings                          : NBC
Codec ID                                 : A_AAC-5
Duration                                 : 1 h 59 min
Bit rate                                 : 96.0 kb/s
Channel(s)                               : 2 channels
Channel positions                        : Front: L R
Sampling rate                            : 44.1 kHz / 22.05 kHz
Frame rate                               : 21.533 FPS (1024 SPF)
Compression mode                         : Lossy
Stream size                              : 81.7 MiB (8%)
Language                                 : English
Default                                  : Yes
Forced                                   : No

Subtitles : Korean (Hard Coded)


Files:

  • www.TamilRockers.cl - Deadpool 2 (2018) English 720p HC HDRip x264 1GB.mkv (1,005.4 MB)

Comments

Code:

  • udp://tracker.openbittorrent.com:80/announce
  • udp://explodie.org:6969/announce
  • udp://zer0day.ch:1337/announce
  • udp://tracker.leechers-paradise.org:6969/announce
  • udp://tracker.coppersurfer.tk:6969/announce
  • udp://tracker.opentrackr.org:1337/announce