Marine254d | FUT Web AppFIFA Ultimate Team Web App – Keine Pause im Trainingscamp | Sonic's Ultimate Genesis Collection (Xbox 360)Downloaden APK | Poldark HDTV 720p AC3 5.1 | Trò Chơi Tình Ái

Robin Hood Prince of Thieves (1991) Extended Cut (1080p BluRay x2...

  • Category Movies
  • Type HD
  • Language English
  • Total size 7.5 GB
  • Uploaded By Vyndros
  • Downloads 825
  • Last checked 3 days ago
  • Date uploaded 1 week ago
  • Seeders 17
  • Leechers 8

Robin Hood: Prince of Thieves

ActionAdventureDramaRomance

When the dastardly Sheriff of Nottingham murders Robin's father, the legendary archer vows vengeance. To accomplish his mission, Robin joins forces with a band of exiled villagers (and comely Maid Marian), and together they battle to end the evil sheriff's reign of terror.

Infohash : F1DA1FB5F9FF7F322AFA0ECBCD3CF7D5B7E85BF4










Media Information

Code:

General
Format : Matroska
Format version : Version 4 / Version 2
File size : 7.51 GiB
Duration : 2 h 35 min
Overall bit rate : 6 934 kb/s
Encoded date : UTC 2018-08-08 00:53:04
Writing application : mkvmerge v20.0.0 ('I Am The Sun') 64-bit
Writing library : libebml v1.3.5 + libmatroska v1.4.8
Writing frontend : StaxRip v1.7.0.6

Video
ID : 1
Format : HEVC
Format/Info : High Efficiency Video Coding
Format profile : Main [email protected]@Main
Codec ID : V_MPEGH/ISO/HEVC
Duration : 2 h 35 min
Bit rate : 6 464 kb/s
Width : 1 920 pixels
Height : 1 080 pixels
Display aspect ratio : 16:9
Frame rate mode : Constant
Frame rate : 23.976 (24000/1001) FPS
Color space : YUV
Chroma subsampling : 4:2:0
Bit depth : 10 bits
Bits/(Pixel*Frame) : 0.130
Stream size : 7.00 GiB (93%)
Writing library : x265 2.8+57-eea92165b035:[Windows][GCC 7.3.0][64 bit] 10bit
Encoding settings : cpuid=1111039 / frame-threads=3 / numa-pools=12 / wpp / no-pmode / no-pme / no-psnr / ssim / log-level=2 / input-csp=1 / input-res=1920x1080 / interlace=0 / total-frames=223071 / level-idc=0 / high-tier=1 / uhd-bd=0 / ref=3 / no-allow-non-conformance / no-repeat-headers / annexb / no-aud / no-hrd / info / hash=0 / no-temporal-layers / open-gop / min-keyint=23 / keyint=250 / gop-lookahead=0 / bframes=8 / b-adapt=2 / b-pyramid / bframe-bias=0 / rc-lookahead=50 / lookahead-slices=6 / scenecut=40 / radl=0 / no-intra-refresh / ctu=64 / min-cu-size=8 / no-rect / no-amp / max-tu-size=32 / tu-inter-depth=1 / tu-intra-depth=1 / limit-tu=0 / rdoq-level=0 / dynamic-rd=0.00 / no-ssim-rd / signhide / no-tskip / nr-intra=0 / nr-inter=0 / no-constrained-intra / no-strong-intra-smoothing / max-merge=3 / limit-refs=3 / no-limit-modes / me=3 / subme=3 / merange=57 / temporal-mvp / weightp / no-weightb / no-analyze-src-pics / deblock=0:0 / sao / no-sao-non-deblock / rd=3 / no-early-skip / no-rskip / no-fast-intra / no-tskip-fast / no-cu-lossless / no-b-intra / no-splitrd-skip / rdpenalty=0 / psy-rd=2.00 / psy-rdoq=0.00 / no-rd-refine / no-lossless / cbqpoffs=0 / crqpoffs=0 / rc=crf / crf=18.0 / qcomp=0.60 / qpstep=4 / stats-write=0 / stats-read=0 / ipratio=1.40 / pbratio=1.30 / aq-mode=3 / aq-strength=1.00 / cutree / zone-count=0 / no-strict-cbr / qg-size=32 / no-rc-grain / qpmax=69 / qpmin=0 / no-const-vbv / sar=0 / overscan=0 / videoformat=5 / range=0 / colorprim=2 / transfer=2 / colormatrix=2 / chromaloc=0 / display-window=0 / max-cll=0,0 / min-luma=0 / max-luma=1023 / log2-max-poc-lsb=8 / vui-timing-info / vui-hrd-info / slices=1 / no-opt-qp-pps / no-opt-ref-list-length-pps / no-multi-pass-opt-rps / scenecut-bias=0.05 / no-opt-cu-delta-qp / no-aq-motion / no-hdr / no-hdr-opt / no-dhdr10-opt / no-idr-recovery-sei / analysis-reuse-level=5 / scale-factor=0 / refine-intra=0 / refine-inter=0 / refine-mv=0 / no-limit-sao / ctu-info=0 / no-lowpass-dct / refine-mv-type=0 / copy-pic=1 / max-ausize-factor=1.0 / no-dynamic-refine / no-single-sei
Default : Yes
Forced : No

Audio
ID : 2
Format : AAC
Format/Info : Advanced Audio Codec
Format profile : LC
Codec ID : A_AAC
Duration : 2 h 35 min
Bit rate : 449 kb/s
Channel(s) : 6 channels
Channel positions : Front: L C R, Side: L R, LFE
Sampling rate : 48.0 kHz
Frame rate : 46.875 FPS (1024 spf)
Compression mode : Lossy
Stream size : 498 MiB (6%)
Language : English
Default : Yes
Forced : Yes

Subtitle #1
ID : 3
Format : PGS
Muxing mode : zlib
Codec ID : S_HDMV/PGS
Codec ID/Info : Picture based subtitle format used on BDs/HD-DVDs
Duration : 2 h 32 min
Bit rate : 23.9 kb/s
Count of elements : 3078
Stream size : 26.0 MiB (0%)
Language : English
Default : No
Forced : No

Subtitle #2
ID : 4
Format : PGS
Muxing mode : zlib
Codec ID : S_HDMV/PGS
Codec ID/Info : Picture based subtitle format used on BDs/HD-DVDs
Duration : 2 h 34 min
Bit rate : 17.9 kb/s
Count of elements : 2686
Stream size : 19.7 MiB (0%)
Default : No
Forced : No

Menu
00:00:00.000 : en:Credits
00:02:19.681 : en:English Courage
00:05:57.774 : en:Our Way Lies Together
00:08:16.954 : en:Locksley Tragedy
00:10:59.659 : en:Home
00:15:35.559 : en:Gisborne's Welcome
00:20:08.290 : en:Murderous Portents
00:23:47.134 : en:World Upside Down
00:27:07.417 : en:Marian's Welcome
00:31:15.748 : en:Getting Reacquainted
00:34:46.084 : en:Cross-Country Flight
00:37:32.041 : en:The Forest Has Eyes
00:41:24.732 : en:Quarterstaff Duel
00:44:35.506 : en:Outlaw Campfire
00:47:40.566 : en:Sunday Worship
00:50:58.764 : en:Visiting the Bishop
00:56:04.861 : en:Planning to Lead
00:58:17.035 : en:One True Weapon
01:02:18.735 : en:Call Off Christmas
01:07:56.697 : en:Feisty Friar
01:14:22.332 : en:Gisborne Penalized
01:16:17.197 : en:Glimpse of Robin
01:18:49.307 : en:Distractions; Camp Tour
01:22:39.621 : en:Salt of the Earth
01:25:47.433 : en:Medical Emergency
01:29:40.958 : en:"I'll Do It for You."
01:32:10.525 : en:Undelivered Message
01:34:41.676 : en:In His Palm
01:37:30.511 : en:Marian Abducted
01:40:27.062 : en:Overrun By Celts
01:43:45.385 : en:Fiery Assualt
01:47:24.646 : en:The Sheriff's Proposal
01:52:12.183 : en:Will's Bargain
01:54:24.357 : en:Finish What's Been Started
01:59:35.835 : en:Hole in the Wall
02:01:52.346 : en:"Your Are Me."
02:04:26.417 : en:Battle Positions
02:08:23.654 : en:Will Exposed
02:12:02.122 : en:Cheating the Hangman
02:16:21.214 : en:Storming the Castle
02:18:29.384 : en:Martial Mayhem
02:21:34.652 : en:Dropping In
02:23:26.723 : en:Final Duel
02:27:00.520 : en:Vow Fulfilled
02:28:11.173 : en:Royal Guest
02:30:23.180 : en:End Credits



Source Information

Code:

Release:
BluRay Remux


Files:

Robin Hood Prince of Thieves (1991) Extended Cut (1080p BluRay x265 HEVC 10bit AAC 5.1 Vyndros)
  • Robin Hood Prince of Thieves [1991] Extended Cut 1080p 10bit BluRay AAC5.1 HEVC-Vyndros.mkv (7.5 GB)

Comments

Code:

  • udp://tracker.coppersurfer.tk:6969/announce
  • udp://tracker.zer0day.to:1337/announce
  • udp://tracker.opentrackr.org:1337/announce
  • udp://tracker.torrent.eu.org:451/announce
  • udp://tracker.ilibr.org:6969/announce
  • udp://tracker.leechers-paradise.org:6969/announce
  • udp://p4p.arenabg.com:1337/announce
  • udp://tracker.internetwarriors.net:1337/announce