Si Tu Voyais Son Coeur 2017 FRENCH | PPV 1989 | DownloadMamoru Hosoda Movie Collection (The Girl Who Leapt Through Time / Wolf Children / Summer Wars / The Boy and the Beast) | La Educacion De Las Hadas BLuRayRip | DirectAPK.net Link

The Meg (2018) English HDCAM - 720p - x264 - MP3 - 700MB - MovCr

  • Category Movies
  • Type HD
  • Language English
  • Total size 672.9 MB
  • Uploaded By ictv
  • Downloads 678
  • Last checked 47 minutes ago
  • Date uploaded 5 days ago
  • Seeders 8
  • Leechers 6

The Meg

ActionScience FictionThrillerHorror

A deep sea submersible pilot revisits his past fears in the Mariana Trench, and accidentally unleashes the seventy foot ancestor of the Great White Shark believed to be extinct.

Infohash : CECD4C67E2CF3AAB01749143334DF6A293ABA4A7

Visit Our Site www.movcr.com


The Meg (2018) English HDCAM - 720p - x264 - MP3 - 700MB - MovCr


http://www.imdb.com/title/tt4779682/



General
Unique ID : 49307947568562752436510452338126310441 (0x25185D8274D84F2250BB3E506F194C29)
Complete name : www.MovCr.com - The Meg (2018) English HDCAM - 720p - x264 - MP3 - 700MB - MovCr.mkv
Format : Matroska
Format version : Version 4 / Version 2
File size : 673 MiB
Duration : 1 h 43 min
Overall bit rate : 907 kb/s
Movie name : www.MovCr.com
Encoded date : UTC 2018-08-10 15:59:06
Writing application : mkvmerge v23.0.0 ('The Bride Said No') 64-bit
Writing library : libebml v1.3.6 + libmatroska v1.4.9

Video
ID : 1
Format : AVC
Format/Info : Advanced Video Codec
Format profile : [email protected]
Format settings : CABAC / 4 Ref Frames
Format settings, CABAC : Yes
Format settings, RefFrames : 4 frames
Codec ID : V_MPEG4/ISO/AVC
Duration : 1 h 43 min
Bit rate : 862 kb/s
Width : 1 280 pixels
Height : 528 pixels
Display aspect ratio : 2.40:1
Frame rate mode : Constant
Frame rate : 29.970 (30000/1001) FPS
Color space : YUV
Chroma subsampling : 4:2:0
Bit depth : 8 bits
Scan type : Progressive
Bits/(Pixel*Frame) : 0.043
Stream size : 640 MiB (95%)
Title : www.MovCr.com
Writing library : x264 core 155 r2901 7d0ff22
Encoding settings : cabac=1 / ref=3 / deblock=1:0:0 / analyse=0x3:0x113 / me=hex / subme=7 / psy=1 / psy_rd=1.00:0.00 / mixed_ref=1 / me_range=16 / chroma_me=1 / trellis=1 / 8x8dct=1 / cqm=0 / deadzone=21,11 / fast_pskip=1 / chroma_qp_offset=-2 / threads=16 / lookahead_threads=2 / sliced_threads=0 / nr=0 / decimate=1 / interlaced=0 / bluray_compat=0 / constrained_intra=0 / bframes=3 / b_pyramid=2 / b_adapt=1 / b_bias=0 / direct=1 / weightb=1 / open_gop=0 / weightp=2 / keyint=300 / keyint_min=29 / scenecut=40 / intra_refresh=0 / rc_lookahead=40 / rc=2pass / mbtree=1 / bitrate=862 / ratetol=1.0 / qcomp=0.60 / qpmin=0 / qpmax=69 / qpstep=4 / cplxblur=20.0 / qblur=0.5 / ip_ratio=1.40 / aq=1:1.00
Language : English
Default : Yes
Forced : No

Audio
ID : 2
Format : AAC
Format/Info : Advanced Audio Codec
Format profile : LC
Codec ID : A_AAC-2
Duration : 1 h 43 min
Bit rate : 42.4 kb/s
Channel(s) : 2 channels
Channel positions : Front: L R
Sampling rate : 48.0 kHz
Frame rate : 46.875 FPS (1024 SPF)
Compression mode : Lossy
Delay relative to video : -21 ms
Stream size : 31.4 MiB (5%)
Title : www.MovCr.com
Language : English
Default : Yes
Forced : No




Files:

  • www.MovCr.com - The Meg (2018) English HDCAM - 720p - x264 - MP3 - 700MB - MovCr.mkv (672.9 MB)

Comments

Code:

  • udp://tracker.coppersurfer.tk:6969/announce
  • udp://tracker.opentrackr.org:1337/announce
  • udp://tracker.leechers-paradise.org:6969/announce
  • udp://9.rarbg.to:2800/announce
  • udp://9.rarbg.to:2800/announce
  • udp://eddie4.nl:6969/announce
  • udp://9.rarbg.to:2800/announce
  • udp://9.rarbg.to:2800/announce
  • udp://tracker.doko.moe:6969/announce
  • udp://tracker.doko.moe:6969/announce
  • udp://thetracker.org:80/announce
  • udp://thetracker.org:80/announce
  • udp://bt.xxx-tracker.com:2710/announce
  • udp://bt.xxx-tracker.com:2710/announce
  • udp://tracker.vanitycore.co:6969/announce
  • udp://tracker.vanitycore.co:6969/announce
  • udp://tracker.tiny-vps.com:6969/announce
  • udp://tracker.leechers-paradise.org:6969/announce
  • udp://tracker.tiny-vps.com:6969/announce
  • udp://tracker.opentrackr.org:1337/announce
  • udp://tracker.coppersurfer.tk:6969/announce
  • udp://open.stealth.si:80/announce
  • udp://tracker.leechers-paradise.org:6969/announce
  • udp://inferno.demonoid.pw:3418/announce
  • udp://tracker.opentrackr.org:1337/announce
  • udp://retracker.lanta-net.ru:2710/announce
  • udp://peerfect.org:6969/announce
  • udp://tracker.coppersurfer.tk:6969/announce
  • udp://tracker.swateam.org.uk:2710/announce
  • udp://open.stealth.si:80/announce
  • udp://inferno.demonoid.pw:3418/announce
  • udp://retracker.lanta-net.ru:2710/announce
  • udp://peerfect.org:6969/announce
  • udp://tracker.swateam.org.uk:2710/announce